JUST CLICK BELOW PICTURE
                                                                                             
               PC SOFWARE            GAMES          WALLPAPERS           ARTICLES        ADOBE            ANDROID APPS

Tuesday, November 24, 2015

007 Spectre (2015) HINDI Dubbed - HDTS - x264 - AAC torrent free download hollywood movie


free download torrent
Download Torrent: 007 Spectre (2015) HINDI Dubbed - HDTS - x264 - AAC -={SPARROW}=-

Format : MPEG-4
Format profile : Base Media
Codec ID : isom
File size : 1.12 GiB
Duration : 2h 20mn
Overall bit rate mode : Variable
Overall bit rate : 1 141 Kbps

Video
ID : 1
Format : AVC
Format/Info : Advanced Video Codec
Format profile : High@L4.1
Format settings, CABAC : Yes
Format settings, ReFrames : 4 frames
Codec ID : avc1
Codec ID/Info : Advanced Video Coding
Duration : 2h 20mn
Bit rate : 1 000 Kbps
Maximum bit rate : 4 762 Kbps
Width : 720 pixels
Height : 296 pixels
Display aspect ratio : 2.40:1
Frame rate mode : Constant
Frame rate : 23.976 fps
Color space : YUV
Chroma subsampling : 4:2:0
Bit depth : 8 bits
Scan type : Progressive
Bits/(Pixel*Frame) : 0.196
Stream size : 1 004 MiB (88%)

Audio
ID : 2
Format : AAC
Format/Info : Advanced Audio Codec
Format profile : HE-AAC / LC
Codec ID : 40
Duration : 2h 20mn
Bit rate mode : Variable
Bit rate : 138 Kbps
Maximum bit rate : 160 Kbps
Channel(s) : 2 channels
Channel positions : Front: L R
Sampling rate : 48.0 KHz / 24.0 KHz
Compression mode : Lossy
Stream size : 139 MiB (12%)
Language : Hindi

d5d8131c2b5ee601f53c535ab9bede0f.th.jpg

184e9deec7583917a5183b969b43159a.th.jpg

1e25b34ce05eba970ae13c1481bbe7d5.th.jpg

e79eef15026ccee2c7071863fcd6020a.th.jpg

9bf63b8b9759a189fe360a5baed935d3.th.jpg

f00823885b19cc2d627f8b7c9f1ff139.th.jpg

No comments:

Post a Comment